Delain - Apocalypse & Chill (2020) [24bit Hi-Res]

  • Category Music
  • Type Lossless
  • Language English
  • Total size 677.3 MB
  • Uploaded By was95was
  • Downloads 67
  • Last checked 4 days ago
  • Date uploaded 1 week ago
  • Seeders 4
  • Leechers 0

Infohash : 4A2BFB7163D27398429F2980ABDF464AA2916B37



Quality-Lossless
Release-2020
Duration-00:56:04
File Size-710 MB
Genre-Metal
Cover Size-1500px

----------------------------------------------------------------------------------------------
Analyzed: Apocalypse & Chill / Artist: Delain
----------------------------------------------------------------------------------------------
DR Peak RMS Duration Title [codec]
----------------------------------------------------------------------------------------------
DR5 -0.30 dB -6.82 dB 3:35 01 - One Second [flac]
DR6 -0.68 dB -8.19 dB 4:08 02 - We Had Everything [flac]
DR7 -0.68 dB -9.32 dB 4:38 03 - Chemical Redemption [flac]
DR6 -0.70 dB -8.17 dB 4:16 04 - Burning Bridges [flac]
DR6 -0.70 dB -8.83 dB 4:51 05 - Vengeance [flac]
DR5 -1.07 dB -7.71 dB 3:46 06 - To Live is to Die [flac]
DR6 -0.74 dB -7.87 dB 4:07 07 - Let's Dance [flac]
DR5 -2.71 dB -8.28 dB 3:39 08 - Creatures [flac]
DR8 -3.84 dB -14.70 dB 2:58 09 - Ghost House Heart [flac]
DR5 -1.24 dB -10.16 dB 4:53 10 - Masters of Destiny [flac]
DR5 -1.33 dB -8.19 dB 5:16 11 - Legions of the Lost [flac]
DR5 -0.96 dB -9.09 dB 4:25 12 - The Greatest Escape [flac]
DR5 -1.14 dB -8.77 dB 5:25 13 - Combustion [flac]
----------------------------------------------------------------------------------------------
Number of files: 13
Official DR value: DR6

Sampling rate: 44100 Hz
Average bitrate: 1679kbs
Bits per sample: 24 bit

Files:

Delain - Apocalypse & Chill (2020) [24bit Hi-Res]
  • 01 - One Second.flac (45.1 MB)
  • 02 - We Had Everything.flac (50.4 MB)
  • 03 - Chemical Redemption.flac (56.5 MB)
  • 04 - Burning Bridges.flac (54.2 MB)
  • 05 - Vengeance.flac (59.0 MB)
  • 06 - To Live is to Die.flac (45.9 MB)
  • 07 - Let's Dance.flac (50.7 MB)
  • 08 - Creatures.flac (45.3 MB)
  • 09 - Ghost House Heart.flac (30.0 MB)
  • 10 - Masters of Destiny.flac (58.5 MB)
  • 11 - Legions of the Lost.flac (64.7 MB)
  • 12 - The Greatest Escape.flac (52.8 MB)
  • 13 - Combustion.flac (63.4 MB)
  • cover.jpg (828.8 KB)
  • dr14.txt (1.5 KB)

There are currently no comments. Feel free to leave one :)

Code:

  • udp://tracker.piratepublic.com:1337/announce
  • udp://tracker.pirateparty.gr:6969/announce
  • udp://tracker.coppersurfer.tk:6969/announce
  • udp://tracker.leechers-paradise.org:6969/announce
  • udp://9.rarbg.com:2710/announce
  • http://p4p.arenabg.com:1337/announce
  • http://explodie.org:6969/announce
  • udp://tracker.opentrackr.org:1337/announce
  • udp://exodus.desync.com:6969/announce
  • udp://tracker.leechers-paradise.org:6969/announce
  • udp://tracker.zer0day.to:1337/announce
  • udp://open.demonii.si:1337/announce
  • udp://exodus.desync.com:6969/announce
  • udp://tracker.iamhansen.xyz:2000/announce