Jumanji.The.Next.Level 2019.1080P.Korsub.Hdrip.X264-Obey[TGx]

  • Category Movies
  • Type HD
  • Language English
  • Total size 3.1 GB
  • Uploaded By 0bey
  • Downloads 1295
  • Last checked 16 hours ago
  • Date uploaded 5 days ago
  • Seeders 182
  • Leechers 70

Jumanji: The Next Level

ActionAdventureComedyFantasy

Spencer returns to the world of Jumanji, prompting his friends, his grandfather and his grandfather’s friend to enter a different and more dangerous version to save him.

Infohash : 31576F1768B13436AFD7A2554A1AC4684F4D50EC

Make sure your Uploads are provided by Obey


https://torrentgalaxy.org



https://www.imdb.com/title/tt7975244/


Complete name
Jumanji.The.Next.Level 2019.1080P.Korsub.Hdrip.X264-Obey[TGx]
Format : Matroska
Format version : Version 4
File size : 3.07 GiB
Duration : 2 h 3 min
Overall bit rate : 3 569 kb/s
Movie name : Jumanji.The.Next.Level.2019.1080P.Korsub.Hdrip.X264-Obey
Encoded date : UTC 2020-02-14 04:54:13

Video
ID : 1
Format : AVC
Format/Info : Advanced Video Codec
Format profile : [email protected]
Format settings : CABAC / 4 Ref Frames
Format settings, CABAC : Yes
Format settings, Reference frames : 4 frames
Codec ID : V_MPEG4/ISO/AVC
Duration : 2 h 3 min
Bit rate : 3 406 kb/s
Width : 1 920 pixels
Height : 804 pixels
Display aspect ratio : 2.40:1
Frame rate mode : Constant
Frame rate : 29.970 FPS
Color space : YUV
Chroma subsampling : 4:2:0
Bit depth : 8 bits
Scan type : Progressive
Bits/(Pixel*Frame) : 0.074
Stream size : 2.93 GiB (95%)
Title : Jumanji.The.Next.Level.2019.1080P.Korsub.Hdrip.X264-Obey
Writing library : x264 core 157 r2935 545de2f
Default : Yes
Forced : No
Color range : Limited
Color primaries : BT.709
Transfer characteristics : BT.709
Matrix coefficients : BT.709

Audio
ID : 2
Format : AAC LC
Format/Info : Advanced Audio Codec Low Complexity
Codec ID : A_AAC-2
Duration : 2 h 3 min
Bit rate : 161 kb/s
Channel(s) : 2 channels
Channel layout : L R
Sampling rate : 48.0 kHz
Frame rate : 46.875 FPS (1024 SPF)
Compression mode : Lossy
Delay relative to video : -21 ms
Stream size : 142 MiB (5%)
Title : Stereo
Language : English
Default : Yes
Forced : No





















Files:

Jumanji.The.Next.Level 2019.1080P.Korsub.Hdrip.X264-Obey.mkv
  • Jumanji.The.Next.Level 2019.1080P.Korsub.Hdrip.X264-Obey.mkv (3.1 GB)

There are currently no comments. Feel free to leave one :)

Code:

  • udp://tracker.coppersurfer.tk:6969/announce
  • udp://tracker.leechers-paradise.org:6969/announce
  • udp://open.stealth.si:80/announce
  • udp://exodus.desync.com:6969
  • udp://p4p.arenabg.com:1337/announce
  • udp://explodie.org:6969/announce
  • udp://tracker.opentrackr.org:1337/announce
  • udp://tracker.tiny-vps.com:6969/announce
  • udp://open.demonii.si:1337/announce
  • udp://tracker.torrent.eu.org:451/announce
  • udp://tracker.pirateparty.gr:6969/announce
  • udp://ipv4.tracker.harry.lu:80/announce
  • udp://tracker.cyberia.is:6969/announce
  • udp://9.rarbg.to:2710/announce
  • udp://denis.stalker.upeer.me:6969/announce